أنت غير مسجل, من فضلك التسجيل أو الدخول للحصول على التخويل
Recover Password: via Email | via Question
تورينت مضاعف  (Seed this Torrent to get Double Upload Credits!). Hotel Transylvania 3 UHD HDR Arabic.Dolby.5.1&English.TrueHD Armos.7.1
9.6 rating from 8 vote(s).
9.6 rating from 8 vote(s).
لقد قمت بالتصويت مسبقا
تحميل
Bookmark and Share
تحميل التورينت
مضاف 14-10-2018 22:06 - (آخر متفاعل اليوم 19:46)
النوع الحصرية / أفلام
الحجم 37.59 GB in 1 file(s)
Hits 4
Snatched 1 الوقت
الرافع Taxfour
الردود 19 الردود
المتفاعلون 2 seeder(s), 0 leecher(s) = 2 peer(s) total
الأعضاء الرائعون قاموا بشكر الرافع على هذا التورينت (25)

تفاصيل التورينت " Hotel Transylvania 3 UHD HDR Arabic.Dolby.5.1&English.TrueHD Armos.7.1 "

 



 





Hotel Transylvania 3 A Monster Vacation (2018)



Arabic.Dolby.5.1&English.TrueHD Armos.7.1



UHD.BluRay.HEVC.HDR.2160p





 





الرمز: (تحديد الكل)
[/align]


General
Unique ID : 137984712615353953785186540971000862169 (0x67CEE394CE79F808225F4402BCD415D9)
Complete name : Hotel Transylvania 3 A Monster Vacation (2018) Arabic.Dolby.5.1&English.TrueHD Armos.7.1.UHD.BluRay.HEVC.HDR.2160p.mkv
Format : Matroska
Format version : Version 4
File size : 37.6 GiB
Duration : 1 h 37 min
Overall bit rate mode : Variable
Overall bit rate : 55.3 Mb/s
Encoded date : UTC 2018-10-14 17:40:30
Writing application : mkvmerge v27.0.0 ('Metropolis') 64-bit
Writing library : libebml v1.3.6 + libmatroska v1.4.9

Video
ID : 1
Format : HEVC
Format/Info : High Efficiency Video Coding
Commercial name : HDR10
Format profile : Main 10@L5.1@High
Codec ID : V_MPEGH/ISO/HEVC
Duration : 1 h 37 min
Bit rate : 51.6 Mb/s
Width : 3 840 pixels
Height : 2 160 pixels
Display aspect ratio : 16:9
Frame rate mode : Constant
Frame rate : 23.976 (24000/1001) FPS
Color space : YUV
Chroma subsampling : 4:2:0 (Type 2)
Bit depth : 10 bits
Bits/(Pixel*Frame) : 0.259
Stream size : 35.1 GiB (93%)
Language : Arabic
Default : Yes
Forced : Yes
Color range : Limited
Color primaries : BT.2020
Transfer characteristics : PQ
Matrix coefficients : BT.2020 non-constant
Mastering display color pri : Display P3
Mastering display luminance : min: 0.0001 cd/m2, max: 1000 cd/m2
Maximum Content Light Level : 1000 cd/m2
Maximum Frame-Average Light : 1000 cd/m2

Audio #1
ID : 2
Format : AC-3
Format/Info : Audio Coding 3
Commercial name : Dolby Digital
Codec ID : A_AC3
Duration : 1 h 37 min
Bit rate mode : Constant
Bit rate : 384 kb/s
Channel(s) : 6 channels
Channel layout : L R C LFE Ls Rs
Sampling rate : 48.0 kHz
Frame rate : 31.250 FPS (1536 SPF)
Bit depth : 16 bits
Compression mode : Lossy
Stream size : 267 MiB (1%)
Title : Arabic Dolby 5.1 AC3
Language : Arabic
Service kind : Complete Main
Default : Yes
Forced : Yes

Audio #2
ID : 3
Format : MLP FBA 16-ch
Format/Info : Meridian Lossless Packing FBA with 16-channel presentation
Commercial name : Dolby TrueHD with Dolby Atmos
Codec ID : A_TRUEHD
Duration : 1 h 37 min
Bit rate mode : Variable
Bit rate : 3 186 kb/s
Maximum bit rate : 4 224 kb/s
Channel(s) : 8 channels
Channel layout : L R C LFE Ls Rs Lb Rb
Sampling rate : 48.0 kHz
Frame rate : 1 200.000 FPS (40 SPF)
Compression mode : Lossless
Stream size : 2.17 GiB (6%)
Title : En 7.1 TrueHD Armos
Language : English
Default : No
Forced : No
Number of dynamic objects : 11
Bed channel count : 1 channel
Bed channel configuration : LFE

Text #1
ID : 4
Format : PGS
Muxing mode : zlib
Codec ID : S_HDMV/PGS
Codec ID/Info : Picture based subtitle format used on BDs/HD-DVDs
Duration : 1 h 30 min
Bit rate : 53.3 kb/s
Count of elements : 3259
Stream size : 34.6 MiB (0%)
Language : English
Default : No
Forced : No

Text #2
ID : 5
Format : UTF-8
Codec ID : S_TEXT/UTF8
Codec ID/Info : UTF-8 Plain Text
Duration : 1 h 26 min
Bit rate : 66 b/s
Count of elements : 1000
Stream size : 42.6 KiB (0%)
Language : Arabic
Default : No
Forced : No

Menu
00:00:00.000 : :00:00:00.000
00:04:28.935 : :00:04:28.935
00:09:34.824 : :00:09:34.824
00:16:02.044 : :00:16:02.044
00:20:03.077 : :00:20:03.077
00:24:34.932 : :00:24:34.932
00:31:12.537 : :00:31:12.537
00:36:49.207 : :00:36:49.207
00:44:04.725 : :00:44:04.725
00:49:57.703 : :00:49:57.703
00:54:49.745 : :00:54:49.745
01:00:34.881 : :01:00:34.881
01:06:12.010 : :01:06:12.010
01:10:32.270 : :01:10:32.270
01:13:46.380 : :01:13:46.380
01:24:56.550 : :01:24:56.550



[align=center]



 



1
#1 by boubaker (Administrator) تبرع 14-10-2018 22:12
فعلا عمل مميز
ملك الحصريات والنوادر
تسلم يالغالي



 


0
#2 by gergis (User) 15-10-2018 03:13
شكرا


0
#3 by khalle (User) 15-10-2018 10:25
Thanxxxxxxxxxxxxxxxxxxxxxx


0
#4 by shadi (VIP) تبرع 15-10-2018 21:32
الله يعطيك الف الف عافيه
فيلم رائع ونسخه مميزه
عفاك





اطيب التهاني بذكرى مولد 
رسول الله محمد صلى الله عليه وسلم 
اللهم صل وسلم وبارك على سيدنا محمد وعلى اله وصحبه اجمعين
ذكرى مباركه للجميع

 

 



0
#5 by ahminam (User) 15-10-2018 23:18
thank


0
#6 by mkhairy (User) 16-10-2018 21:46


0
#7 by bos3eed (Elite ViP) تبرع 17-10-2018 03:07
شكرا


0
#8 by khalle (User) 18-10-2018 15:43
Thanxxxxxxxxxxxxxxxxxxxxxxxxxxxx


0
#9 by yms (User) 19-10-2018 19:03
Thanxxxxxxxxxxxxxxxxxxxxxxxxxxxx

THANKS THANKS THANKS


0
#10 by moayad1399 (User) 23-10-2018 22:17
تسلم ايديك


0
#11 by tarkeen (VIP) تبرع 29-10-2018 00:17


0
#12 by naqqo6i (User) 29-10-2018 22:22
ياربااااه


Path الحجم
mkv  Hotel Transylvania 3 A Monster Vacation (2018) Arabic.Dolby.5.1&English.TrueHD Armos.7.1.UHD.BluRay.HEVC.HDR.2160p.mkv 37.59 GB
2 seeder(s), 0 leecher(s) = 2 peer(s) total
Sorry, permission denied!
من فضلك اكتب بلاغا في النافذة التي ستظهر لك
للأسف ، هذه الميزة غير فعالة الآن.