أنت غير مسجل, من فضلك التسجيل أو الدخول للحصول على التخويل
Recover Password: via Email | via Question
فيلم مغامرات تان تان : سر اليونيكور مدبلج إلى العربية
10 rating from 4 vote(s).
10 rating from 4 vote(s).
لقد قمت بالتصويت مسبقا
تحميل
Bookmark and Share
تحميل التورينت
مضاف 08-04-2018 16:27 - (آخر متفاعل اليوم 02:37)
النوع الحصرية / أفلام
الحجم 3.56 GB in 1 file(s)
Hits 6
Snatched 5 الوقت
الرافع Taxfour
الردود 10 الردود
المتفاعلون 2 seeder(s), 0 leecher(s) = 2 peer(s) total
الأعضاء الرائعون قاموا بشكر الرافع على هذا التورينت (17)

IMDB/رابط
Director(s):
Writer(s):
Genre(s):
User Rating: /10 (awaiting 5 votes)
Language:
Country:
Storyline:
IMDB Link: http://www.imdb.com/title/tt0983193/
Trailers & Videos

تفاصيل التورينت " فيلم مغامرات تان تان : سر اليونيكور مدبلج إلى العربية "

 



 





فيلم مغامرات تان تان : سر اليونيكورن



2011



مدبلج إلى العربية بالصوت الاحترافي 



AC3  5.1



إصدار حصري وذهبي 





الرمز: (تحديد الكل)
[/align]


[align=center]Secret of The Unicorn.Arabic.mp4
Format : MPEG-4
Format profile : Base Media / Version 2
Codec ID : mp42 (mp42/isom)
File size : 3.56 GiB
Duration : 1 h 46 min
Overall bit rate mode : Variable
Overall bit rate : 4 774 kb/s
Movie name : The Adventures of Tintin: The Secret of the Unicorn
Performer : Steven Spielberg
Genre : Action & Adventure
Description : A young reporter named Tintin and his dog, a terrier named Snowy, travel the world and set off on 
Recorded date : UTC 2011-10-26 07:00:00
Encoded date : UTC 2018-04-08 02:11:49
Tagged date : UTC 2018-04-08 02:25:35
Cover : Yes[/align]


[align=center]Video
ID : 5
Format : AVC
Format/Info : Advanced Video Codec
Format profile : Main@L3.1
Format settings, CABAC : No
Format settings, ReFrames : 2 frames
Format settings, GOP : M=2, N=84
Codec ID : avc1
Codec ID/Info : Advanced Video Coding
Duration : 1 h 46 min
Bit rate : 3 997 kb/s
Width : 1 280 pixels
Height : 542 pixels
Display aspect ratio : 2.35:1
Frame rate mode : Variable
Frame rate : 23.976 FPS
Minimum frame rate : 23.976 FPS
Maximum frame rate : 24.769 FPS
Color space : YUV
Chroma subsampling : 4:2:0
Bit depth : 8 bits
Scan type : Progressive
Bits/(Pixel*Frame) : 0.240
Stream size : 2.98 GiB (84%)
Language : English
Encoded date : UTC 2018-04-08 02:22:48
Tagged date : UTC 2018-04-08 02:24:24
Color range : Limited
Color primaries : BT.709
Transfer characteristics : BT.709
Matrix coefficients : BT.709[/align]


[align=center]Audio #1
ID : 1
Format : AAC
Format/Info : Advanced Audio Codec
Format profile : LC
Codec ID : 40
Duration : 1 h 46 min
Duration_LastFrame : -2 ms
Bit rate mode : Variable
Bit rate : 128 kb/s
Maximum bit rate : 226 kb/s
Channel(s) : 2 channels
Channel positions : Front: L R
Sampling rate : 48.0 kHz
Frame rate : 46.875 FPS (1024 spf)
Compression mode : Lossy
Stream size : 98.0 MiB (3%)
Language : Arabic
Default : Yes
Alternate group : 1
Encoded date : UTC 2018-04-08 02:11:58
Tagged date : UTC 2018-04-08 02:15:43
Menus : 25[/align]


[align=center]Audio #2
ID : 2
Format : AC-3
Format/Info : Audio Coding 3
Mode extension : CM (complete main)
Format settings, Endianness : Big
Codec ID : ac-3
Duration : 1 h 46 min
Bit rate mode : Constant
Bit rate : 384 kb/s
Channel(s) : 6 channels
Channel positions : Front: L C R, Side: L R, LFE
Sampling rate : 48.0 kHz
Frame rate : 31.250 FPS (1536 spf)
Bit depth : 16 bits
Compression mode : Lossy
Stream size : 294 MiB (8%)
Language : Arabic
Default : No
Alternate group : 1
Encoded date : UTC 2018-04-08 02:15:44
Tagged date : UTC 2018-04-08 02:16:43[/align]


[align=center]Audio #3
ID : 3
Format : AAC
Format/Info : Advanced Audio Codec
Format profile : LC
Codec ID : 40
Duration : 1 h 46 min
Duration_LastFrame : -2 ms
Bit rate mode : Variable
Bit rate : 127 kb/s
Maximum bit rate : 223 kb/s
Channel(s) : 2 channels
Channel positions : Front: L R
Sampling rate : 48.0 kHz
Frame rate : 46.875 FPS (1024 spf)
Compression mode : Lossy
Stream size : 97.3 MiB (3%)
Language : English
Default : No
Alternate group : 1
Encoded date : UTC 2018-04-08 02:16:44
Tagged date : UTC 2018-04-08 02:19:48[/align]


[align=center]Audio #4
ID : 4
Format : AAC
Format/Info : Advanced Audio Codec
Format profile : LC
Codec ID : 40
Duration : 1 h 46 min
Duration_LastFrame : -2 ms
Bit rate mode : Variable
Bit rate : 128 kb/s
Maximum bit rate : 217 kb/s
Channel(s) : 2 channels
Channel positions : Front: L R
Sampling rate : 48.0 kHz
Frame rate : 46.875 FPS (1024 spf)
Compression mode : Lossy
Stream size : 97.7 MiB (3%)
Language : French
Default : No
Alternate group : 1
Encoded date : UTC 2018-04-08 02:19:49
Tagged date : UTC 2018-04-08 02:22:48[/align]


[align=center]Text #1
ID : 6
Format : Timed Text
Muxing mode : sbtl
Codec ID : tx3g
Duration : 25 min
Bit rate mode : Variable
Bit rate : 2 b/s
Stream size : 413 Bytes (0%)
Language : Arabic
Default : Yes
Forced : No
Alternate group : 2
Encoded date : UTC 2018-04-08 02:24:25
Tagged date : UTC 2018-04-08 02:24:27[/align]


[align=center]Text #2
ID : 7
Format : Timed Text
Muxing mode : sbtl
Codec ID : tx3g
Duration : 1 h 40 min
Bit rate mode : Variable
Bit rate : 108 b/s
Stream size : 79.2 KiB (0%)
Language : Arabic
Default : No
Forced : No
Alternate group : 2
Encoded date : UTC 2018-04-08 02:24:27
Tagged date : UTC 2018-04-08 02:24:34
Forced Alternative : 6[/align]


[align=center]Text #3
ID : 8
Format : Timed Text
Muxing mode : sbtl
Codec ID : tx3g
Duration : 1 h 15 min
Bit rate mode : Variable
Bit rate : 0 b/s
Stream size : 244 Bytes (0%)
Language : French
Default : No
Forced : No
Alternate group : 2
Encoded date : UTC 2018-04-08 02:24:35
Tagged date : UTC 2018-04-08 02:24:37[/align]


[align=center]Text #4
ID : 9
Format : Timed Text
Muxing mode : sbtl
Codec ID : tx3g
Duration : 1 h 46 min
Bit rate mode : Variable
Bit rate : 81 b/s
Stream size : 63.3 KiB (0%)
Language : French
Default : No
Forced : No
Alternate group : 2
Encoded date : UTC 2018-04-08 02:24:37
Tagged date : UTC 2018-04-08 02:24:41
Forced Alternative : 8[/align]


[align=center]Text #5
ID : 10
Format : Timed Text
Muxing mode : sbtl
Codec ID : tx3g
Duration : 1 h 40 min
Bit rate mode : Variable
Bit rate : 90 b/s
Stream size : 66.3 KiB (0%)
Language : Danish
Default : No
Forced : No
Alternate group : 2
Encoded date : UTC 2018-04-08 02:24:42
Tagged date : UTC 2018-04-08 02:24:44[/align]


[align=center]Text #6
ID : 11
Format : Timed Text
Muxing mode : sbtl
Codec ID : tx3g
Duration : 1 h 40 min
Bit rate mode : Variable
Bit rate : 97 b/s
Stream size : 70.9 KiB (0%)
Language : German
Default : No
Forced : No
Alternate group : 2
Encoded date : UTC 2018-04-08 02:24:45
Tagged date : UTC 2018-04-08 02:24:48[/align]


[align=center]Text #7
ID : 12
Format : Timed Text
Muxing mode : sbtl
Codec ID : tx3g
Duration : 1 h 40 min
Bit rate mode : Variable
Bit rate : 128 b/s
Stream size : 94.0 KiB (0%)
Language : Greek
Default : No
Forced : No
Alternate group : 2
Encoded date : UTC 2018-04-08 02:24:49
Tagged date : UTC 2018-04-08 02:24:51[/align]


[align=center]Text #8
ID : 13
Format : Timed Text
Muxing mode : sbtl
Codec ID : tx3g
Duration : 1 h 40 min
Bit rate mode : Variable
Bit rate : 93 b/s
Stream size : 68.0 KiB (0%)
Language : English
Default : No
Forced : No
Alternate group : 2
Encoded date : UTC 2018-04-08 02:24:52
Tagged date : UTC 2018-04-08 02:24:55[/align]


[align=center]Text #9
ID : 14
Format : Timed Text
Muxing mode : sbtl
Codec ID : tx3g
Duration : 1 h 40 min
Bit rate mode : Variable
Bit rate : 93 b/s
Stream size : 68.0 KiB (0%)
Language : English
Default : No
Forced : No
Alternate group : 2
Encoded date : UTC 2018-04-08 02:24:56
Tagged date : UTC 2018-04-08 02:24:58[/align]


[align=center]Text #10
ID : 15
Format : Timed Text
Muxing mode : sbtl
Codec ID : tx3g
Duration : 1 h 46 min
Bit rate mode : Variable
Bit rate : 82 b/s
Stream size : 64.1 KiB (0%)
Language : Spanish
Default : No
Forced : No
Alternate group : 2
Encoded date : UTC 2018-04-08 02:24:59
Tagged date : UTC 2018-04-08 02:25:02[/align]


[align=center]Text #11
ID : 16
Format : Timed Text
Muxing mode : sbtl
Codec ID : tx3g
Duration : 1 h 40 min
Bit rate mode : Variable
Bit rate : 88 b/s
Stream size : 64.5 KiB (0%)
Language : Finnish
Default : No
Forced : No
Alternate group : 2
Encoded date : UTC 2018-04-08 02:25:03
Tagged date : UTC 2018-04-08 02:25:05[/align]


[align=center]Text #12
ID : 17
Format : Timed Text
Muxing mode : sbtl
Codec ID : tx3g
Duration : 1 h 40 min
Bit rate mode : Variable
Bit rate : 119 b/s
Stream size : 87.9 KiB (0%)
Language : Hebrew
Default : No
Forced : No
Alternate group : 2
Encoded date : UTC 2018-04-08 02:25:06
Tagged date : UTC 2018-04-08 02:25:09[/align]


[align=center]Text #13
ID : 18
Format : Timed Text
Muxing mode : sbtl
Codec ID : tx3g
Duration : 1 h 40 min
Bit rate mode : Variable
Bit rate : 165 b/s
Stream size : 121 KiB (0%)
Language : Hindi
Default : No
Forced : No
Alternate group : 2
Encoded date : UTC 2018-04-08 02:25:10
Tagged date : UTC 2018-04-08 02:25:12[/align]


[align=center]Text #14
ID : 19
Format : Timed Text
Muxing mode : sbtl
Codec ID : tx3g
Duration : 1 h 40 min
Bit rate mode : Variable
Bit rate : 86 b/s
Stream size : 63.0 KiB (0%)
Language : Italian
Default : No
Forced : No
Alternate group : 2
Encoded date : UTC 2018-04-08 02:25:13
Tagged date : UTC 2018-04-08 02:25:16[/align]


[align=center]Text #15
ID : 20
Format : Timed Text
Muxing mode : sbtl
Codec ID : tx3g
Duration : 1 h 40 min
Bit rate mode : Variable
Bit rate : 89 b/s
Stream size : 65.5 KiB (0%)
Language : Dutch
Default : No
Forced : No
Alternate group : 2
Encoded date : UTC 2018-04-08 02:25:17
Tagged date : UTC 2018-04-08 02:25:19[/align]


[align=center]Text #16
ID : 21
Format : Timed Text
Muxing mode : sbtl
Codec ID : tx3g
Duration : 1 h 40 min
Bit rate mode : Variable
Bit rate : 82 b/s
Stream size : 60.7 KiB (0%)
Language : Norwegian
Default : No
Forced : No
Alternate group : 2
Encoded date : UTC 2018-04-08 02:25:20
Tagged date : UTC 2018-04-08 02:25:23[/align]


[align=center]Text #17
ID : 22
Format : Timed Text
Muxing mode : sbtl
Codec ID : tx3g
Duration : 1 h 46 min
Bit rate mode : Variable
Bit rate : 86 b/s
Stream size : 66.9 KiB (0%)
Language : Portuguese
Default : No
Forced : No
Alternate group : 2
Encoded date : UTC 2018-04-08 02:25:24
Tagged date : UTC 2018-04-08 02:25:27[/align]


[align=center]Text #18
ID : 23
Format : Timed Text
Muxing mode : sbtl
Codec ID : tx3g
Duration : 1 h 40 min
Bit rate mode : Variable
Bit rate : 77 b/s
Stream size : 56.3 KiB (0%)
Language : Swedish
Default : No
Forced : No
Alternate group : 2
Encoded date : UTC 2018-04-08 02:25:28
Tagged date : UTC 2018-04-08 02:25:30[/align]


[align=center]Text #19
ID : 24
Format : Timed Text
Muxing mode : sbtl
Codec ID : tx3g
Duration : 1 h 40 min
Bit rate mode : Variable
Bit rate : 90 b/s
Stream size : 66.1 KiB (0%)
Language : Turkish
Default : No
Forced : No
Alternate group : 2
Encoded date : UTC 2018-04-08 02:25:31
Tagged date : UTC 2018-04-08 02:25:34[/align]


[align=center]Menu
ID : 25
Codec ID : text
Duration : 1 h 46 min
Encoded date : UTC 2018-04-08 02:25:35
Tagged date : UTC 2018-04-08 02:25:35
Menu For : 1
00:00:00.000 : 1
00:05:44.000 : 2
00:12:14.000 : 3
00:17:13.000 : 4
00:25:38.000 : 5
00:32:39.000 : 6
00:37:57.000 : 7
00:42:31.000 : 8
00:50:54.000 : 9
00:56:29.000 : 10
01:02:21.000 : 11
01:12:00.000 : 12
01:20:05.000 : 13
01:27:32.000 : 14
01:34:14.000 : 15
01:40:31.000 : 16
Bit rate mode : VBR[/align]


[align=center]



 



 



 



 

0
#1 by EBRO (LBERO) تبرع 08-04-2018 16:29
عمل حصري يا بو حصريات تسلم يدك



 

0
#2 by boubaker (Administrator) تبرع 08-04-2018 16:34
رااااااااااااااائع جداً
حصري يعني حصري
تسلم الأيااااااااااااااااادي



 


0
#3 by bos3eed (Elite ViP) تبرع 08-04-2018 22:28
شكرا


0
#4 by shadi (VIP) تبرع 08-04-2018 23:43
تسلم الايادي معلم تاكس
احسنت
ودي





 




 






0
#5 by khalidsultan (User) 11-04-2018 20:17
شكراً


0
#6 by ramon (AST Family) 15-04-2018 01:01
الله ينور يا كبير الاكابر


0
#7 by alhammadi80 (User) 21-04-2018 01:07
تسلم الحصريات وتسليم يد راعي الحصريات


0
#8 by schumiluo (User) 26-04-2018 10:18
thanks


0
#9 by armanimams (User) 01-05-2018 16:44
شكرا جزيلا


0
#10 by algerois2018 (User) 26-06-2018 15:26
شكرااااا


Path الحجم
mp4  The Adventures of Tintin The Secret of The Unicorn Arabic AC3.5.1.720p.mp4 3.56 GB
2 seeder(s), 0 leecher(s) = 2 peer(s) total
Sorry, permission denied!
من فضلك اكتب بلاغا في النافذة التي ستظهر لك
للأسف ، هذه الميزة غير فعالة الآن.