أنت غير مسجل, من فضلك التسجيل أو الدخول للحصول على التخويل
Recover Password: via Email | via Question
تورينت مجاني (Only upload stats are recorded! Download & بقاء التورينت فعالا يساعدك في تحسين المعدل!). تورينت مضاعف  (Seed this Torrent to get Double Upload Credits!). AC3 -5.1 فيلم كوكو 2017 ريماكس بلوراي 1080 مدبلج عربي
9.3 rating from 18 vote(s).
9.3 rating from 18 vote(s).
لقد قمت بالتصويت مسبقا
تحميل
Bookmark and Share
تحميل التورينت
مضاف 02-03-2018 10:33 - (آخر متفاعل اليوم 16:22)
النوع أفلام الرسوم المدبلجة / Remux
الحجم 21.43 GB in 1 file(s)
Hits 100
Snatched 46 الوقت
الرافع Taxfour
الردود 88 الردود
المتفاعلون 5 seeder(s), 0 leecher(s) = 5 peer(s) total
الأعضاء الرائعون قاموا بشكر الرافع على هذا التورينت (113)

IMDB/رابط
Director(s):
Writer(s):
Genre(s):
User Rating: /10 (awaiting 5 votes)
Language:
Country:
Storyline:
IMDB Link: http://www.imdb.com/title/tt2380307/
Trailers & Videos

تفاصيل التورينت " AC3 -5.1 فيلم كوكو 2017 ريماكس بلوراي 1080 مدبلج عربي "

 



 




نقدم لكم نسخة احترافية جدا مجانية التحميل مضاعفة الرفع 



ريماكس بلوراي 1080



بالصوتين العربي والانجليزي 



Arabic AC3 5.1 



English DTS-HD 7.1



 





الرمز: (تحديد الكل)
</span>[/align]




[align=center]
Format : Matroska
Format version : Version 4 / Version 2
File size : 21.4 GiB
Duration : 1 h 45 min
Overall bit rate mode : Variable
Overall bit rate : 29.2 Mb/s
Movie name : COCO.Title800
Encoded date : UTC 2018-03-01 17:25:03
Writing application : mkvmerge v14.0.0 ('Flow') 64bit
Writing library : libebml v1.3.4 + libmatroska v1.4.5

Video
ID : 1
Format : AVC
Format/Info : Advanced Video Codec
Format profile : High@L4.1
Format settings, CABAC : Yes
Format settings, ReFrames : 4 frames
Format settings, GOP : M=1, N=12
Codec ID : V_MPEG4/ISO/AVC
Duration : 1 h 45 min
Bit rate mode : Variable
Bit rate : 24.1 Mb/s
Maximum bit rate : 32.0 Mb/s
Width : 1 920 pixels
Height : 1 080 pixels
Display aspect ratio : 16:9
Frame rate mode : Constant
Frame rate : 23.976 (24000/1001) FPS
Color space : YUV
Chroma subsampling : 4:2:0
Bit depth : 8 bits
Scan type : Progressive
Bits/(Pixel*Frame) : 0.484
Stream size : 17.7 GiB (82%)
Language : Arabic
Default : Yes
Forced : Yes

Audio #1
ID : 2
Format : AC-3
Format/Info : Audio Coding 3
Mode extension : CM (complete main)
Format settings, Endianness : Big
Codec ID : A_AC3
Duration : 1 h 45 min
Bit rate mode : Constant
Bit rate : 640 kb/s
Channel(s) : 6 channels
Channel positions : Front: L C R, Side: L R, LFE
Sampling rate : 48.0 kHz
Frame rate : 31.250 FPS (1536 spf)
Compression mode : Lossy
Stream size : 481 MiB (2%)
Title : Arabic - AC3 - 5.1
Language : Arabic
Default : Yes
Forced : Yes

Audio #2
ID : 3
Format : DTS
Format/Info : Digital Theater Systems
Format profile : MA / Core
Mode : 16
Format settings, Endianness : Big
Codec ID : A_DTS
Duration : 1 h 45 min
Bit rate mode : Variable / Constant
Bit rate : 4 479 kb/s / 1 509 kb/s
Channel(s) : 8 channels / 6 channels
Channel positions : Front: L C R, Side: L R, Back: L R, LFE / Front: L C R, Side: L R, LFE
Sampling rate : 48.0 kHz
Frame rate : 93.750 FPS (512 spf)
Bit depth : 24 bits
Compression mode : Lossless / Lossy
Stream size : 3.29 GiB (15%)
Title : English DTS-HD - 7.1
Language : English
Default : No
Forced : No

Menu
00:00:00.000 : en:(01)00:00:00:000
00:06:40.191 : en:(02)00:06:40:191
00:08:41.520 : en:(03)00:08:41:520
00:11:13.589 : en:(04)00:11:13:589
00:14:20.317 : en:(05)00:14:20:317
00:17:06.942 : en:(06)00:17:06:942
00:18:20.932 : en:(07)00:18:20:932
00:22:05.991 : en:(08)00:22:05:991
00:24:19.958 : en:(09)00:24:19:958
00:27:44.829 : en:(10)00:27:44:829
00:29:07.912 : en:(11)00:29:07:912
00:32:15.308 : en:(12)00:32:15:308
00:35:18.407 : en:(13)00:35:18:407
00:41:25.524 : en:(14)00:41:25:524
00:47:04.696 : en:(15)00:47:04:696
00:50:54.175 : en:(16)00:50:54:175
00:54:23.885 : en:(17)00:54:23:885
00:56:45.026 : en:(18)00:56:45:026
01:01:42.615 : en:(19)01:01:42:615
01:03:28.137 : en:(20)01:03:28:137
01:08:58.216 : en:(21)01:08:58:216
01:15:17.262 : en:(22)01:15:17:262
01:18:56.773 : en:(23)01:18:56:773
01:21:31.761 : en:(24)01:21:31:761
01:24:31.816 : en:(25)01:24:31:816
01:28:23.464 : en:(26)01:28:23:464
01:33:14.755 : en:(27)01:33:14:755
01:36:10.472 : en:(28)01:36:10:472

[/align]




[align=center]<span>



 



 



 
 



 

0
#1 by shadi (VIP) تبرع 02-03-2018 11:55
اول الردود وشكر بلا حدود
يعطيك العافيه تاكس





 




 






0
#2 by z2017 (User) 02-03-2018 14:52
thanks


0
#3 by Artemis (User) 02-03-2018 14:54
Thank you


0
#4 by EBRO (LBERO) تبرع 02-03-2018 15:20
تسلم يدك يا بوحصريات


آخر التعديلات كانت من قبل EBRO 02-03-2018 15:20



 

0
#5 by EBRO (LBERO) تبرع 02-03-2018 15:22



 

0
#6 by Samizain123 (User) 02-03-2018 15:25
THAN


0
#7 by HICHAM (AST Family) 02-03-2018 16:12


0
#8 by TazlCr7 (Uploader) 02-03-2018 16:18
Legend



The Magic Box



 

0
#9 by khalle (User) 02-03-2018 16:19
THANXXXXXXXXXXXXXXXXXXXXXXXXXXXXXXXX


0
#10 by Ammar123 (User) 02-03-2018 16:19
الف شكر يابرنس


0
#11 by Hussain777 (User) 02-03-2018 16:48
مافي مترجم ؟؟ انجليزي يعني يدعم الترجمه


0
#12 by mashkel (AST Family) 02-03-2018 17:10
نسخه اكثر من رائعه تسلم يمينك تاكس


Path الحجم
mkv  Coco.2017.1080p.Remux.AC3&5.1.Arabic&DTS-HD.MA.7.1.English.Taxfour.mkv 21.43 GB
5 seeder(s), 0 leecher(s) = 5 peer(s) total
Sorry, permission denied!
من فضلك اكتب بلاغا في النافذة التي ستظهر لك
للأسف ، هذه الميزة غير فعالة الآن.